Гринч – Похититель Рождества Торрент

General Unique ID : 189677052274854540858398852651880296850 (0x8EB278B283DED49C950B4B9EADB43192) Complete name : F:\Louis de Funes Resident Evil 6 Скачать. HDRip-AVC H Intel Hd Graphics 4000M Драйвер. 264 2,18 Gb . RG Films\Chelove . orkestr 1970 . DVDRip-AVC H . 264 2,18 Gb . RG Films . mkv Format : Matroska Format version : Version 2 File size : 2 19 GiB Duration : 1h 22mn Overall bit rate : 3 819 Kbps Encoded date : UTC 2014-10-13 12:22:58 Writing application : mkvmerge v5 . 8 0 ('No Sleep / Pillow') built on Sep 2 2012 15:37:04 Writing library : libebml v1 . 2 3 + libmatroska v1 . 3 0 Video ID : 1 Format : AVC Format/Info : Advanced Video Codec Format profile : High@L4 . 1 Format settings, CABAC : Yes Format settings, ReFrames : 8 frames Muxing mode : Header stripping Codec ID : V_MPEG4/ISO/AVC Duration : 1h 22mn Bit rate : 2 827 Kbps Width : 1 024 pixels Height : 432 pixels Display aspect ratio : 2 40:1 Frame rate mode : Constant Frame rate : 25 . 000 fps Color space : YUV Chroma subsampling : 4:2:0 Bit depth : 8 bits Scan type : Progressive Bits/(Pixel*Frame) : 0 256 Stream size : 1 . 58 GiB (72%) Writing library : x264 core 125 r2208 d9d2288 Encoding settings : cabac=1 / ref=8 / deblock=1:-1:-1 / analyse=0x3:0x133 / me=umh / subme=11 / psy=1 / psy_rd=1 00:0 . 10 / mixed_ref=1 / me_range=24 / chroma_me=1 / trellis=2 / 8x8dct=1 / cqm=0 / deadzone=21,11 / fast_pskip=0 / chroma_qp_offset=-3 / threads=12 / lookahead_threads=2 / sliced_threads=0 / nr=0 / decimate=1 / interlaced=0 / bluray_compat=0 / constrained_intra=0 / bframes=3 / b_pyramid=2 / b_adapt=2 / b_bias=0 / direct=3 / weightb=1 / open_gop=0 / weightp=2 / keyint=250 / keyint_min=25 / scenecut=40 / intra_refresh=0 / rc_lookahead=50 / rc=2pass / mbtree=1 / bitrate=2827 / ratetol=1 0 / qcomp=0 . 60 / qpmin=0 / qpmax=69 / qpstep=4 / cplxblur=20 0 / qblur=0 . 5 / ip_ratio=1 40 / aq=1:1 . 00 Default : Yes Forced : No Audio #1 ID : 2 Format : AC-3 Format/Info : Audio Coding 3 Mode extension : CM (complete main) Format settings, Endianness : Big Muxing mode : Header stripping Codec ID : A_AC3 Duration : 1h 22mn Bit rate mode : Constant Bit rate : 192 Kbps Channel(s) : 2 channels Channel positions : Front: L R Sampling rate : 48 0 KHz Bit depth : 16 bits Compression mode : Lossy Stream size : 113 MiB (5%) Default : Yes Forced : No Audio #2 ID : 3 Format : AC-3 Format/Info : Audio Coding 3 Mode extension : CM (complete main) Format settings, Endianness : Big Muxing mode : Header stripping Codec ID : A_AC3 Duration : 1h 22mn Bit rate mode : Constant Bit rate : 192 Kbps Channel(s) : 2 channels Channel positions : Front: L R Sampling rate : 48 . 0 KHz Bit depth : 16 bits Compression mode : Lossy Stream size : 113 MiB (5%) Default : No Forced : No Audio #3 ID : 4 Format : AC-3 Format/Info : Audio Coding 3 Mode extension : CM (complete main) Format settings, Endianness : Big Muxing mode : Header stripping Codec ID : A_AC3 Duration : 1h 22mn Bit rate mode : Constant Bit rate : 192 Kbps Channel(s) : 2 channels Channel positions : Front: L R Sampling rate : 48 0 KHz Bit depth : 16 bits Compression mode : Lossy Stream size : 113 MiB (5%) Default : No Forced : No Audio #4 ID : 5 Format : AC-3 Format/Info : Audio Coding 3 Mode extension : CM (complete main) Format settings, Endianness : Big Muxing mode : Header stripping Codec ID : A_AC3 Duration : 1h 22mn Bit rate mode : Constant Bit rate : 224 Kbps Channel(s) : 2 channels Channel positions : Front: L R Sampling rate : 48 . 0 KHz Bit depth : 16 bits Compression mode : Lossy Stream size : 131 MiB (6%) Default : No Forced : No Audio #5 ID : 6 Format : AC-3 Format/Info : Audio Coding 3 Mode extension : CM (complete main) Format settings, Endianness : Big Muxing mode : Header stripping Codec ID : A_AC3 Duration : 1h 22mn Bit rate mode : Constant Bit rate : 192 Kbps Channel(s) : 2 channels Channel positions : Front: L R Sampling rate : 48 0 KHz Bit depth : 16 bits Compression mode : Lossy Stream size : 113 MiB (5%) Default : No Forced : No

Нашлось

52790 статей по запросу «Гринч – похититель Рождества торрент»

Гринч – похититель Рождества торрент
13.06.2016 12:12:33

Скачать фильм Гринч, похититель Рождества / How the Grinch ...

Файл: Гринч - похититель Рождества - How the Grinch Stole Christmas (2000) BDRip 720p.torrent Формат: MKV Видео кодек: AVC ...

Гринч – похититель Рождества торрент
22.06.2016 02:12:33

Гринч - похититель Рождества скачать фильм бесплатно BDRip

По сюжету фильма «Гринч - похититель Рождества» жил-был в одном городе человечек, и звали ...

Гринч – похититель Рождества торрент
17.06.2016 12:12:33

Скачать мультфильм Как Гринч украл Рождество! / How the ...

Файл: Как Гринч украл Рождество! - How the Grinch Stole Christmas! (1966) BDRip-AVC от MediaClub.torrent Формат: MKV Видео ...

Гринч – похититель Рождества торрент
18.06.2016 12:12:33

Фильмы с Энтони Хопкинс список фильмы с участием Энтони ...

Фильмы с Энтони Хопкинс Выполнена сортировка фильмы с Энтони Хопкинс, теперь Вы можете ...

Гринч – похититель Рождества торрент
20.06.2016 01:12:33

Смотреть лучшие фильмы фэнтези онлайн бесплатно 2012, 2013 ...

Фэнтези фильмы: 1. Смотреть новые лучшие фэнтези фильмы онлайн бесплатно 2012, 2013, 2014 года в ...

Гринч – похититель Рождества торрент
18.06.2016 02:12:33

Скачать торрент Фильмы с участием Луи де Фюнеса / Человек ...

Антологии » Скачать торрент Фильмы с участием Луи де Фюнеса / Человек-оркестр / L`Homme orchestre...

Гринч – похититель Рождества торрент
18.06.2016 02:12:33

Скачать фильм Куб 1-2-3 / Cube (1997) HDTV через торрент

Антологии » Скачать торрент Куб 1-2-3 / Cube (Трилогия) (Винченцо Натали, Анджей Секула, Эрни ...

Гринч – похититель Рождества торрент
14.06.2016 02:12:33

Карта сайта — Смотреть онлайн или скачать бесплатно через ...

Карта сайта. Здесь находится полный список материалов сайта fantasy-serials.ru

Гринч – похититель Рождества торрент
12.06.2016 02:12:33

Семья смотреть онлайн (2016) - Filmix

Когда сын Клэр Уоррен, мэра Калифорнийского города Ред Пайнс, возвращается после ...

Скачать Карту Биг Сити Для Гаррис Мод 13 Скачать Плеер Для Просмотра Видео На Компьютере English Grammar In Use Upper-Intermediate Скачать Устинова Шекспир Мне Друг Скачать Бесплатно Fb2 Скачать Counter-Strike 1.6 Скачать Взломанцю Игру Плитки 2 Фортопияно Скачать Русский Рэп Бесплатно И Без Регистрации Скачать Виндовс 7 Для Мак Ос Скачать Вацап Где Же Ты Блондиночка Моя Скачать Скачать Песню Justin Bieber – No Sense (Feat. Travis Scott) Скачать Fifa 15 Когда Выйдет Android 6.0 Padfone S Майнкрафт Скачать Пожалуйста Скачать Сборник Музыки 80-90 Бесплатно И Без Регистрации Бланк Анкеты Для Визы В Португалию Скачать Word Бажов Каменный Цветок Скачать Аудиокнигу Бесплатно Новые Русские Аферы Валерия Башкирова Скачать Fb2 Скачать Браузер Амиго Черная Дыра Скачать Торрент Men Of War Assault Squad 2 Скачать Торрент Nero Скачать Ключи Word Excel 2010 Скачать Бесплатно Скачать Михаил Круг Скачать Видео Клипы Кавказа Бесплатно 2015 Мурат Ворлд Оф Крафт Скачать Торент Скачать Мод На Дрифт Для Самп 0.3Z Скачать Fallout 4 На Русском Механики Бесплатно На Pc Скачать Сброс Триала Для Касперского 2015 Скачать Felbj Rybueаллен Карр Легкий Способ Бросить Курить Скачать Антиафэка Гдз Геометрия 7 Класс Скачать Обновление Драйверов Нвидиа Скачать Моды Для Gta 5 Столе Зе Шоу Скачать